<?xml version="1.0" standalone="no"?>
<!DOCTYPE svg PUBLIC "-//W3C//DTD SVG 1.1//EN" "http://www.w3.org/Graphics/SVG/1.1/DTD/svg11.dtd" >
<svg xmlns="http://www.w3.org/2000/svg">
<metadata>Generated by IcoMoon</metadata>
<defs>
<font id="Theme-of-the-Crop-Icons" horiz-adv-x="1024">
<font-face units-per-em="1024" ascent="960" descent="-64" />
<missing-glyph horiz-adv-x="1024" />
<glyph unicode="&#x20;" horiz-adv-x="512" d="" />
<glyph unicode="&#xe900;" glyph-name="chili" d="M621.981 586.477c-32.613-27.319-2.104-151.307-69.434-221.707 73.643 64.095 67.33 173.372 92.579 199.641s67.33 6.304 67.33 6.304c0 0-57.862 43.080-90.475 15.761zM704.154 417.829c-77.43-129.031-390.203-275.509-420.847-221.959-30.644 53.548 193.011 114.365 255.292 200.105s29.028 152.284 55.962 194.314c11.545 18.018 54.792 31.766 94.239 14.902 7.583 70.891-37.509 80.987-17.354 99.678 19.383 17.976 38.759-48.202 34.728-108.745 43.411-27.269 54.365-84.335-2.020-178.294zM511.518 950.835c-279.026 0-505.222-225.916-505.222-504.598 0-278.684 226.196-504.6 505.222-504.6s505.222 225.916 505.222 504.6c0 278.682-226.196 504.598-505.222 504.598z" />
<glyph unicode="&#xe901;" glyph-name="chili-2" d="M708.753 495.223c-32.009-26.813-2.065-148.505-68.149-217.601 72.279 62.908 66.084 170.162 90.865 195.944s66.084 6.188 66.084 6.188c0 0-56.791 42.283-88.8 15.469zM624.083 653.009c0 0-56.791 42.283-88.8 15.469s-2.065-148.505-68.149-217.601c72.279 62.908 66.084 170.162 90.865 195.944s66.084 6.188 66.084 6.188zM789.404 329.697c-75.996-126.642-382.977-270.407-413.053-217.848-30.076 52.556 189.437 112.247 250.564 196.4s28.49 149.464 54.926 190.715c11.331 17.684 53.778 31.178 92.494 14.626 7.443 69.579-36.815 79.487-17.033 97.832 19.024 17.643 38.041-47.309 34.085-106.732 42.607-26.764 53.358-82.773-1.983-174.992zM198.751 289.23c-30.076 52.556 189.437 112.247 250.564 196.4s28.49 149.464 54.926 190.715c11.331 17.684 53.778 31.178 92.494 14.626 7.443 69.579-36.815 79.487-17.033 97.832 19.024 17.643 38.041-47.309 34.085-106.732 42.607-26.764 53.358-82.773-1.983-174.992-75.996-126.642-382.977-270.407-413.053-217.848zM511.535 941.523c-273.858 0-495.866-221.732-495.866-495.253 0-273.523 222.008-495.255 495.866-495.255s495.866 221.732 495.866 495.255c0 273.521-222.008 495.253-495.866 495.253z" />
<glyph unicode="&#xe902;" glyph-name="chili-3" d="M717.733 565.495c0 0-57.862 43.080-90.475 15.761s-2.104-151.307-69.434-221.707c73.643 64.095 67.33 173.372 92.579 199.641s67.33 6.304 67.33 6.304zM804 404.732c-32.613-27.319-2.104-151.307-69.434-221.707 73.643 64.095 67.33 173.372 92.579 199.641s67.33 6.304 67.33 6.304c0 0-57.862 43.080-90.475 15.761zM530.47 752.528c0 0-57.862 43.080-90.475 15.761s-2.104-151.307-69.434-221.707c73.643 64.095 67.33 173.372 92.579 199.641s67.33 6.304 67.33 6.304zM465.326 14.125c-30.644 53.548 193.011 114.365 255.292 200.105s29.028 152.284 55.962 194.314c11.545 18.018 54.792 31.766 94.239 14.902 7.583 70.891-37.509 80.987-17.354 99.678 19.383 17.976 38.759-48.202 34.728-108.745 43.411-27.269 54.365-84.335-2.020-178.294-77.43-129.031-390.203-275.509-420.847-221.959zM284.376 194.853c-30.644 53.548 193.011 114.365 255.292 200.105s29.028 152.284 55.962 194.314c11.545 18.018 54.792 31.766 94.239 14.902 7.583 70.891-37.509 80.987-17.354 99.678 19.383 17.976 38.759-48.202 34.728-108.745 43.411-27.269 54.365-84.335-2.020-178.294-77.43-129.031-390.203-275.509-420.847-221.959zM101.321 377.682c-30.644 53.548 193.011 114.365 255.292 200.105s29.028 152.284 55.962 194.314c11.545 18.018 54.792 31.766 94.239 14.902 7.583 70.891-37.509 80.987-17.354 99.678 19.383 17.976 38.759-48.202 34.728-108.745 43.411-27.269 54.365-84.335-2.020-178.294-77.43-129.031-390.203-275.509-420.847-221.959zM511.534 950.836c-279.026 0-505.222-225.918-505.222-504.6s226.196-504.6 505.222-504.6c279.026 0 505.222 225.918 505.222 504.6s-226.196 504.6-505.222 504.6z" />
<glyph unicode="&#xe903;" glyph-name="decaf" d="M865.515 322.376h-73.068v-40.225h61.332v-29.879h-61.332v-67.346h-38.892v167.331h111.96v-29.881zM700.625 184.926l-9.782 32.523h-49.822l-9.666-32.523h-40.964l54.658 167.331h20.826v-0.116l0.116 0.116h20.826l54.773-167.331h-40.964zM581.646 296.059h-37.857c0 10.264-2.186 17.619-6.558 22.066-4.374 4.443-11.547 6.664-21.518 6.664-8.745 0-15.459-3.505-20.136-10.514-4.682-7.011-7.019-16.341-7.019-27.985v-35.166c0-11.722 2.567-21.109 7.709-28.158 5.138-7.048 12.502-10.573 22.093-10.573 8.896 0 15.322 2.221 19.273 6.666 3.949 4.443 5.925 11.873 5.925 22.295h37.859l0.229-0.689c0.305-19.077-5.083-33.54-16.168-43.383-11.084-9.848-26.791-14.769-47.119-14.769-20.713 0-37.339 6.321-49.881 18.964-12.542 12.64-18.815 29.19-18.815 49.648v34.937c0 20.378 6.041 36.908 18.125 49.589 12.082 12.68 28.056 19.021 47.925 19.021 21.249 0 37.684-4.941 49.307-14.824 11.621-9.885 17.279-24.251 16.971-43.097l-0.345-0.689zM431.024 322.376h-70.882v-35.971h59.030v-29.881h-59.030v-41.719h70.766v-29.879h-109.658v167.331h109.774v-29.881zM298.006 253.535c0-20.151-6.636-36.625-19.907-49.416-13.27-12.796-29.764-19.193-49.477-19.193h-61.332v167.331h61.332c19.713 0 36.207-6.418 49.477-19.25 13.27-12.836 19.907-29.288 19.907-49.362v-30.11zM321.694 804.864c-46.29-145.002 103.1-178.626 98.892-250.077s-88.371-126.089-88.371-126.089c0 0 79.955 81.958 29.457 138.698s-105.902 138.702-39.977 237.468v0zM481.604 804.864c-46.29-145.002 103.1-178.626 98.892-250.077s-88.371-126.089-88.371-126.089c0 0 79.955 81.958 29.457 138.698s-105.902 138.702-39.977 237.468v0zM639.409 804.864c-46.29-145.002 103.1-178.626 98.892-250.077s-88.371-126.089-88.371-126.089c0 0 79.955 81.958 29.457 138.698s-105.902 138.702-39.977 237.468v0zM514.94 950.108c-279.026 0-505.222-225.916-505.222-504.598 0-278.684 226.196-504.6 505.222-504.6s505.222 225.916 505.222 504.6c0 278.682-226.196 504.598-505.222 504.598v0zM228.622 322.376h-22.438v-107.571h22.438c8.82 0 16.088 3.6 21.805 10.804 5.715 7.202 8.572 16.511 8.572 27.927v30.341c0 11.262-2.857 20.494-8.572 27.695-5.717 7.202-12.984 10.804-21.805 10.804v0zM665.529 299.276l-15.534-51.947h31.875l-15.65 51.947h-0.69z" />
<glyph unicode="&#xe904;" glyph-name="fairtrade" d="M600.497 477.688c-75.284 0-136.313 60.954-136.313 136.145 0 75.189 61.029 136.143 136.313 136.143s136.313-60.954 136.313-136.143c0-75.191-61.029-136.145-136.313-136.145zM1012.614 436.257c0 278.682-226.196 504.598-505.222 504.598-100.036 0-193.282-29.038-271.748-79.136-6.737-17.528-95.413-203.756 36.091-309.881 88.371-75.653 337.704-150.256 434.492-181.778s202.816-126.171 187.132-259.424c74.398 87.884 119.255 201.52 119.255 325.621zM154.96 488.794c-34.717 58.842-61.769 157.42-28.634 278.781-77.327-88.641-124.155-204.519-124.155-331.318 0-230.596 154.87-425.063 366.391-485.31 22.017 29.467 53.616 129.109 17.847 235.234s-196.731 243.772-231.448 302.614z" />
<glyph unicode="&#xe905;" glyph-name="free-range" d="M846.449 466.932c-21.041-39.928-37.873-84.059-56.81-130.292s-65.226-46.233-103.1-117.683c-37.873-71.45-128.349-102.973-151.493-105.074-10.52-16.812-11.572-40.979-1.052-51.486s79.955-2.101 78.903-22.066c-13.676 0-150.441 1.051-180.95 0 4.208 17.863 28.405 12.609 59.966 25.218 11.572 5.254 34.496 51.774 15.781 52.537-51.55 2.101-28.405 45.182-71.539 52.537s-57.023 34.41-124.14 79.856c-62.070 42.030-49.446 242.721-29.457 292.106-31.561 12.609-32.613 38.877-46.29 45.182s-33.665 13.66-33.665 13.66c0 0 38.925 22.066 48.394 31.522s-3.156 17.863 16.833 33.624c4.208 10.507 1.052 33.624 12.624 31.522s12.624-33.624 12.624-33.624c0 0 2.104 30.472 16.833 30.472s8.416-30.472 18.937-36.776c65.226-68.298 69.434-177.575 93.631-194.387s129.401-64.095 259.853-22.066c29.457 46.233 44.186 23.116 71.539 46.233s23.145 60.943 48.394 73.552c6.312 21.015 44.186 27.319 37.873-31.522 18.937 0 73.643-4.203 6.312-63.045zM848.069 820.223c-19.118-40.164-54.62-71.041-97.886-84.011l-1.883-169.659-44.754 162.972c-24.317 0.132-47.337 5.716-67.903 15.591l-167.337-158.368 116.511 197.004c-14.35 16.364-25.407 35.679-32.089 56.94l-165.982-26.786 158.706 74.424c0.006 19.815 3.676 38.766 10.323 56.255-13.777 1.126-27.702 1.73-41.77 1.73-279.026 0-505.222-225.918-505.222-504.6s226.196-504.6 505.222-504.6c279.026 0 505.222 225.918 505.222 504.6 0 150.756-66.215 286.046-171.158 378.509z" />
<glyph unicode="&#xe906;" glyph-name="local" d="M396.74 543.342c0 62.151 50.445 112.534 112.673 112.534s112.673-50.383 112.673-112.534c0-62.151-50.445-112.534-112.673-112.534s-112.673 50.383-112.673 112.534zM509.413 772.194c-129.163 0-233.868-104.578-233.868-233.58s233.868-417.039 233.868-417.039c0 0 233.868 288.038 233.868 417.039s-104.707 233.58-233.868 233.58zM509.413-57.716c-279.028 0-505.222 225.918-505.222 504.6s226.194 504.6 505.222 504.6c279.026 0 505.222-225.918 505.222-504.6s-226.196-504.6-505.222-504.6z" />
<glyph unicode="&#xe907;" glyph-name="kosher" d="M717.233 521.373l41.598 71.564h-83.149l41.551-71.564zM634.604 234.283l-127.913-220.305-126.571 220.483-246.2 0.172 123.051 214.351-123.051 214.351 246.2 0.172 126.571 220.483 127.913-220.305 249.419 0.174-124.761-214.877 124.761-214.877-249.419 0.174zM507.393 953.585c-279.028 0-505.222-225.916-505.222-504.6 0-278.682 226.194-504.6 505.222-504.6 279.026 0 505.22 225.918 505.22 504.6 0 278.684-226.194 504.6-505.22 504.6v0zM675.681 305.034h83.149l-41.598 71.564-41.551-71.564zM507.814 736.888l-42.403-73.319 84.986 0.059-42.582 73.26zM258.060 305.034h81.546l-40.621 70.765-40.924-70.765zM298.985 522.174l40.621 70.763h-81.546l40.924-70.763zM424.562 592.937l-83.252-143.952 83.252-143.952h166.923l83.673 143.952-83.673 143.952h-166.923zM507.814 161.082l42.582 73.262-84.986 0.059 42.403-73.321z" />
<glyph unicode="&#xe908;" glyph-name="halal" d="M664.046 300.367l15.36-50.985h-31.284l15.247 50.985h0.677zM387.24 300.367l15.358-50.985h-31.282l15.247 50.985h0.677zM718.044 603.742c-67.116-2.063-82.604-87.659-82.604-87.659s38.205 35.064 60.921 36.095c22.716 1.031 61.953-14.438 88.8-27.845-13.423-20.626-124.939-52.595-163.144-19.594s-32.616 124.695-35.107 191.819c-3.098 83.534-20.651 79.409-20.651 79.409s-45.432-210.382-109.451-275.353c-64.018-64.971-110.483-74.252-159.014-81.471 73.311-15.469 179.665 14.438 210.641 72.19s55.758 181.506 55.758 181.506c0 0-8.26-180.475 36.139-209.351s101.924-23.447 150.753 0c53.693 25.782 138.362 26.813 138.362 26.813s23.749 40.22 32.009 52.595c-128.037-2.063-132.167 62.908-203.413 60.846v0zM356.65 740.387c-1.549-2.063-8.777-51.049 7.744-72.706s53.693-18.563 81.572-51.049c27.879-32.485 31.493-72.19 32.009-74.768-1.033 171.709-119.776 200.585-121.325 198.522v0zM316.037 836.468c0 0-11.703-26.127-26.846-44.001 6.195-26.813 30.977-130.631 32.352-236.508 1.377-22.001 0.69-52.94-6.883-59.814s-23.404-38.502-88.8-37.126c-65.396 1.376-86.047 21.313-88.8 59.814s22.716 72.19 22.716 72.19c0 0-44.745-44.69-46.12-94.191-1.377-49.502 23.404-70.814 75.719-85.939 52.318-15.127 105.321 26.124 112.206 31.625 6.883 5.501 40.612 37.126 46.12 61.877s-6.883 157.442-10.326 193.195c-3.443 35.75 2.065 66.689 13.078 79.751-19.274 11.689-34.417 59.128-34.417 59.128v0zM162.046 188.135h38.172v66.099h60.873v-66.099h38.060v164.232h-38.060v-68.805h-60.873v68.805h-38.172v-164.232zM353.022 188.135l9.485 31.92h48.902l9.599-31.92h40.206l-53.757 164.232h-20.44l-0.114-0.113v0.113h-20.443l-53.643-164.232h40.206zM472.959 188.135h108.757v29.328h-70.585v134.904h-38.172v-164.232zM629.827 188.135l9.485 31.92h48.902l9.601-31.92h40.204l-53.757 164.232h-20.44l-0.114-0.113v0.113h-20.443l-53.643-164.232h40.206zM749.764 188.135h108.757v29.328h-70.585v134.904h-38.172v-164.232zM509.468-51.362c-273.858 0-495.864 221.734-495.864 495.255s222.006 495.255 495.864 495.255c273.861 0 495.866-221.734 495.866-495.255s-222.006-495.255-495.866-495.255v0z" />
<glyph unicode="&#xe909;" glyph-name="has-diary" d="M598.738 610.72c-36.567 79.77-56.236 140.785-56.236 171.54 0 7.689 3.324 23.707-5.178 23.707h-51.579c-8.503 0-5.18-16.018-5.18-23.707 0-30.755-19.669-91.77-56.236-171.54-22.013-48.023-26.372-34.941-26.356-162.279 0.013-84.185 1.936-332.537 1.936-332.537 0-21.231 17.234-38.442 38.492-38.442h146.265c21.26 0 38.492 17.211 38.492 38.442 0 0 1.953 249.354 1.936 334.46-0.027 127.115-4.452 112.574-26.356 160.356zM511.534-62.885c-279.028 0-505.222 225.916-505.222 504.6 0 278.682 226.194 504.598 505.222 504.598 279.026 0 505.22-225.916 505.22-504.598 0-278.684-226.194-504.6-505.22-504.6z" />
<glyph unicode="&#xe90a;" glyph-name="has-peanuts" d="M676.613 287.598l-16.246 13.87c-5.98 5.993-5.963 15.692 0.036 21.666 6.001 5.97 21.129 1.734 27.109-4.26l2.407-2.41c5.98-5.993 11.375-22.322 5.374-28.296-6.001-5.972-12.7-6.563-18.68-0.57v0zM652.109 232.901l23.671 1.891c9.412 0 17.043-7.62 17.043-17.022s-15.206-17.968-24.618-17.968h-3.787c-9.414 0-26.511 8.566-26.511 17.968s4.789 15.131 14.203 15.131v0zM641.589 290.692l16.307-9.667c9.412 0 11.783-8.671 11.783-18.073s-8.894-14.815-18.305-14.815h-3.787c-9.414 0-26.511 8.566-26.511 17.968s11.101 24.587 20.515 24.587v0zM589.347 247.498l23.031-4.087c8.265-1.849 8.734-9.093 6.885-17.352-1.852-8.255-12.892-13.452-21.159-11.604l-16.401 5.035c-8.267 1.847-12.523 11.93-10.674 20.187 1.852 8.257 10.053 9.669 18.318 7.822v0zM573.564 321.108c7.181 4.491 15.806 7.49 20.3 0.319l16.959-18.18c4.496-7.172 1.269-17.676-5.91-22.166-13.853-8.664-27.254 9.936-27.254 9.936-4.496 7.17-11.274 25.6-4.095 30.091v0zM531.207 298.412c7.188 4.478 13.849 3.558 18.335-3.621l12.725-17.148c4.484-7.179 2.296-16.629-4.892-21.109-13.866-8.643-27.271 13.101-27.271 13.101-4.486 7.177-6.083 24.297 1.103 28.778v0zM399.17 522.473c0.242 6.763 2.643 16.871 9.418 16.629 10.611-0.378 29.665-19.109 29.665-19.109-0.242-6.765-4.806-11.493-11.579-11.251-16.26 0.58-27.504 13.731-27.504 13.731v0zM395.141 505.486l14.996-4.293c7.52-1.261 12.13-7.040 10.868-14.551-1.265-7.509-11.81-10.768-19.33-9.507l-3.026 0.509c-7.518 1.261-18.148 10.15-16.885 17.659 1.262 7.511 5.858 11.445 13.378 10.184v0zM337.918 552.131c-0.572 8.442 2.22 14.036 10.674 14.607 13.243 0.891 31.469-9.457 31.469-9.457 0.612-9.070 4.968-16.589-12.791-17.787-20.294-1.37-29.352 12.636-29.352 12.636v0zM336.418 534.888l19.923-7.696c7.972-2.86 10.009-10.232 7.143-18.195-2.864-7.965-17.651-7.794-25.623-4.934 0 0-23.077 1.788-22.993 18.474 0.044 8.461 13.578 15.213 21.55 12.35v0zM274.087 581.741c0.303 8.456 8.566 15.835 17.032 15.532 13.266-0.473 27.439-21.259 27.439-21.259-0.303-8.454-6.007-14.364-14.474-14.063-20.323 0.725-29.998 19.79-29.998 19.79v0zM270.091 649.253c-1.673 7.429 4.33 13.168 11.768 14.843 0 0 24.622-0.708 27.837-8.034 3.061-6.973-1.088-12.809-8.528-14.481l-15.507-1.69c-7.438-1.675-13.893 1.933-15.57 9.362v0zM271.892 558.005l20.626-5.592c7.972-2.862 12.111-11.636 9.247-19.598-2.866-7.963-18.354-10.596-26.326-7.736 0 0-27.286 5.292-22.291 19.174 2.866 7.963 10.771 16.614 18.743 13.752v0zM223.789 586.776l15.093-15.112c5.485-6.447 4.701-16.116-1.757-21.595-6.453-5.479-21.199-0.055-26.684 6.393l-2.205 2.593c-5.487 6.449-9.569 23.152-3.112 28.631 6.453 5.481 13.18 5.537 18.665-0.91v0zM223.383 620.135c-0.789-8.425-6.826-13.996-15.261-13.206-8.433 0.788-12.904 12.197-12.115 20.622l0.318 3.388c0.789 8.425 9.79 20.912 18.225 20.122 8.433-0.788 13.172-5.556 12.382-13.981l-3.55-16.944zM253.246 638.603c13.266-0.473 18.322-25.462 18.322-25.462-0.303-8.456-13.723-19.269-22.19-18.968-8.467 0.303-13.588 11.434-13.287 19.891l0.122 3.402c0.303 8.456 8.566 21.439 17.032 21.137v0zM272.921 669.869l-17.23-1.879c-8.265-1.86-15.438 2.15-17.298 10.402-1.862 8.255 7.615 16.034 15.877 17.894l3.327 0.748c8.265 1.858 22.939-2.822 24.799-11.075 1.862-8.255-1.21-14.231-9.475-16.091v0zM331.743 662.146l-17.378 8.234c-6.605 3.804-8.873 12.235-5.067 18.831 3.806 6.599 17.948 6.468 24.552 2.665l2.657-1.53c6.607-3.802 15.137-16.722 11.33-23.318s-9.489-8.683-16.096-4.882v0zM319.952 604.834c0 0-21.79 17.236-10.962 27.267 6.211 5.754 17.216 9.803 22.979 3.6l15.736-14.443c5.759-6.204 5.395-15.898-0.816-21.649-6.211-5.756-21.175-0.977-26.936 5.226v0zM379.099 600.421c7.065-4.665 24.401-23.669 19.73-30.728-7.322-11.058-23.953-0.715-23.953-0.715-7.068 4.667-22.743 16.829-18.070 23.885 9.553 14.429 22.293 7.557 22.293 7.557v0zM395.238 619.101c-7.316-4.264-18.939-5.823-23.21 1.486l-12.21 17.518c-4.271 7.307-1.801 16.688 5.515 20.952 7.316 4.266 20.881-3.652 25.152-10.959 0 0 17.508-21.559 4.753-28.996v0zM410.349 576.037c-5.555 6.386-17.159 29.335-10.762 34.883 10.020 8.696 23.267-5.72 23.267-5.72 5.557-6.389 17.396-22.299 11.002-27.849-13.075-11.346-23.507-1.313-23.507-1.313v0zM443.507 536.061c-16.26 0.58-19.789 15.833-19.789 15.833 0.24 6.763 6.851 12.668 13.624 12.426 10.613-0.378 14.236-7.902 17.744-17.007 3.505-9.108-4.806-11.493-11.579-11.251v0zM527.918 315.376c-13.866-8.643-20.959 14.151-20.959 14.151-4.486 7.177-12.395 23.247-5.21 27.727 7.188 4.478 13.849-1.696 18.335-8.875l10.621-17.148c4.484-7.179 4.4-11.375-2.788-15.856v0zM563.688 340.593c-13.866-8.643-20.959 14.151-20.959 14.151-4.486 7.177-10.291 19.044-3.106 23.524 7.188 4.478 11.745-3.797 16.231-10.976l10.621-10.844c4.484-7.179 4.4-11.375-2.788-15.856v0zM612.193 367.642c-2.7-7.469-13.811-10.413-21.287-7.715l-20.003 15.791c-7.476 2.698-7.259 10.888-2.336 17.123 7.88 9.972 19.639-3.888 19.639-3.888 7.478-2.698 26.688-13.842 23.986-21.311v0zM625.181 393.561l-18.699 6.254c-8.852 3.194-18.171 15.465-12.34 22.845 9.327 11.804 32.828-2.198 32.828-2.198 8.852-3.194 24.123-13.903 20.925-22.744s-13.862-7.351-22.713-4.157v0zM630.993 326.824l-9.237 6.857c-7.284 5.954-9.996 20.281-2.041 25.304 12.73 8.032 24.029-4.237 24.029-4.237 7.284-5.954 17.068-16.923 11.105-24.199-5.961-7.275-16.572-9.682-23.856-3.726v0zM677.52 350.468c-5.921 6.052-22.726 26.638-16.666 32.55 6.060 5.914 19.078 6.437 24.999 0.385l16.107-14.030c5.919-6.052 5.807-15.751-0.252-21.664-11.692-11.407-24.186 2.759-24.186 2.759v0zM730.568 285.68c-8.195-2.139-14.28 0.725-16.422 8.91l-7.034 20.155c-2.14 8.187 2.769 16.558 10.964 18.695 8.195 2.139 19.124-9.135 21.266-17.323l0.861-3.293c2.142-8.187-1.437-25.006-9.635-27.145v0zM744.722 234.422l-2.596-2.204c-6.457-5.479-23.181-9.555-28.668-3.108-5.485 6.447-5.542 13.166 0.913 18.644l15.13 15.074c6.455 5.479 16.136 4.693 21.621-1.755s0.055-21.172-6.401-26.651v0zM726.596 373.959c-55.802 53.506-154.018 91.406-207.59 135.993s-64.732 115.93-113.839 160.518c-83.225 75.565-210.721 29.879-210.721 29.879s-54.906-116.826-5.799-156.956c49.107-40.13 183.038-73.571 220.983-107.012 37.947-33.441 100.449-193.959 142.858-229.629 42.412-35.671 149.217-42.696 213.391-9.072 14.729 38.877 16.521 122.773-39.283 176.279v0zM508.611-57.716c-279.026 0-505.222 225.918-505.222 504.6s226.196 504.6 505.222 504.6c279.026 0 505.222-225.918 505.222-504.6s-226.196-504.6-505.222-504.6v0z" />
<glyph unicode="&#xe90b;" glyph-name="has-sesame" d="M543.474 615.306h0.605l13.714-45.521h-27.933l13.613 45.521zM832.487 451.846c-38.124-2.523-66.984-35.433-64.46-73.51 2.524-38.079 46.649-126.11 77.557-124.065s63.027 95.117 60.504 133.194c-2.524 38.077-35.477 66.901-73.601 64.381v0zM896.6 661.735h-96.197v-146.636h96.096v26.184h-62.013v36.559h51.729v26.184h-51.729v31.522h62.114v26.186zM777.010 661.735h-45.073l-33.176-102.625h-0.605l-32.872 102.625h-44.668v-146.636h34.081v93.057l0.605 0.101 31.763-93.158h22.89l32.369 94.569 0.605-0.101v-94.468h34.083v146.636zM562.129 661.735h-18.251l-0.101-0.101v0.101h-18.249l-47.898-146.636h35.898l8.471 28.501h43.661l8.572-28.501h35.896l-47.997 146.636zM397.868 633.506c3.562 3.022 8.436 4.531 14.621 4.531 7.595 0 13.277-1.559 17.041-4.682 3.763-3.123 5.648-8.141 5.648-15.057h33.073l0.202 0.604c0.335 14.234-4.607 25.26-14.823 33.084-10.218 7.821-23.695 11.734-40.435 11.734-15.866 0-28.94-3.795-39.225-11.381-10.286-7.588-15.428-17.524-15.428-29.81 0-12.557 4.419-22.175 13.26-28.853 8.839-6.683 22.367-12.976 40.586-18.885 9.008-3.156 15.226-6.126 18.656-8.912 3.428-2.787 5.142-6.798 5.142-12.035 0-4.567-1.749-8.259-5.243-11.078-3.498-2.82-8.808-4.23-15.932-4.23-8.671 0-15.108 1.794-19.311 5.389-4.202 3.591-6.301 9.649-6.301 18.177h-33.176l-0.2-0.604c-0.339-16.787 5.258-29.088 16.787-36.91 11.527-7.823 25.595-11.734 42.201-11.734 16.67 0 30.049 3.642 40.133 10.927 10.082 7.283 15.125 17.373 15.125 30.264 0 12.621-4.37 22.558-13.109 29.81s-21.613 13.394-38.62 18.429c-10.018 3.894-16.857 7.134-20.521 9.719s-5.495 6.025-5.495 10.323c0 4.432 1.782 8.157 5.345 11.179v0zM341.399 661.735h-96.197v-146.636h96.098v26.184h-62.015v36.559h51.729v26.184h-51.729v31.522h62.114v26.186zM154.249 633.506c3.562 3.022 8.436 4.531 14.623 4.531 7.593 0 13.275-1.559 17.039-4.682s5.648-8.141 5.648-15.057h33.073l0.202 0.604c0.335 14.234-4.605 25.26-14.823 33.084-10.218 7.821-23.695 11.734-40.435 11.734-15.864 0-28.938-3.795-39.225-11.381-10.284-7.588-15.428-17.524-15.428-29.81 0-12.557 4.419-22.175 13.26-28.853 8.841-6.683 22.367-12.976 40.588-18.885 9.006-3.156 15.226-6.126 18.654-8.912s5.142-6.798 5.142-12.035c0-4.567-1.749-8.259-5.243-11.078-3.496-2.82-8.808-4.23-15.932-4.23-8.671 0-15.108 1.794-19.309 5.389-4.205 3.591-6.303 9.649-6.303 18.177h-33.176l-0.2-0.604c-0.337-16.787 5.26-29.088 16.789-36.91 11.527-7.823 25.593-11.734 42.198-11.734 16.67 0 30.049 3.642 40.133 10.927 10.084 7.283 15.125 17.373 15.125 30.264 0 12.621-4.37 22.558-13.109 29.81s-21.611 13.394-38.62 18.429c-10.016 3.894-16.857 7.134-20.519 9.719-3.666 2.584-5.495 6.025-5.495 10.323 0 4.432 1.78 8.157 5.342 11.179v0zM587.973 318.313c36.563-11.082 134.604-0.922 143.6 28.682 8.996 29.606-66.856 92.473-103.417 103.555s-75.195-9.537-86.291-46.053c-11.096-36.516 9.547-75.102 46.108-86.184v0zM607.916 171.508c12.55-28.286 111.099-26.405 146.030-10.944s50.701 56.277 35.22 91.165c-15.48 34.888-56.347 50.638-91.28 35.177-34.929-15.461-102.522-87.115-89.971-115.399v0zM512.812-44.224c-273.858 0-495.864 221.732-495.864 495.255 0 273.521 222.006 495.253 495.864 495.253 273.861 0 495.866-221.732 495.866-495.253 0-273.523-222.006-495.255-495.866-495.255v0z" />
<glyph unicode="&#xe90c;" glyph-name="has-shellfish" d="M504.025 600.916c-11.040 0-19.989 8.938-19.989 19.964s8.949 19.964 19.989 19.964c11.040 0 19.989-8.938 19.989-19.964s-8.949-19.964-19.989-19.964zM783.013 480.19c-0.515 2.591-64.124-16.062-65.527-2.053 29.457-0.7 62.428 23.787 61.639 26.561-6.527 22.99-17.142 45.445-32.079 66.798-8.479 12.121-12.959 18.583-21.807 27.958-1.837 1.946-46.912-53.867-52.524-42.66 26.652 21.717 31.772 63.356 28.876 65.947-100.169 89.651-211.47 25.354-274.365 47.525-71.539 25.218-170.43 113.48-170.43 113.48s117.828-121.886 154.65-149.205c-53.654-12.609-168.326 78.806-168.326 78.806s114.672-99.82 135.713-106.125c21.041-6.304 31.561-31.522 65.226-58.842 63.934-51.881 156.293-23.772 183.055-94.567-50.498-10.507-54.706-63.045-54.706-63.045s42.082 67.247 67.33 42.030c-29.457-3.152-48.394-44.131-48.394-44.131s57.862 48.334 65.226 10.507c39.977-123.988-98.892-167.068-134.661-187.032-87.319-49.385-118.88 25.218-133.609 7.355-36.651-55.757 73.994-117.683 91.527-109.277s12.624 42.030 65.226 58.842c133.588 31.131 166.819 76.25 211.064 161.278 1.555 2.993-48.474 27.233-46.37 34.237 25.249-14.011 56.694-11.97 55.596-14.467 19.206 43.616 26.581 85.499 17.668 130.080zM514.941-57.716c-279.028 0-505.222 225.918-505.222 504.6s226.194 504.6 505.222 504.6c279.026 0 505.22-225.918 505.22-504.6s-226.194-504.6-505.22-504.6z" />
<glyph unicode="&#xe90d;" glyph-name="heart-healthy-1" d="M510.387 941.523c273.858 0 495.866-221.732 495.866-495.255 0-273.521-222.008-495.253-495.866-495.253s-495.866 221.732-495.866 495.253c0 273.523 222.008 495.255 495.866 495.255zM558.424 288.937c-4.737-14.489-25.785-12.774-28.103 2.287l-32.579 211.5-29.523-72.857c-2.214-5.472-7.532-9.049-13.44-9.049h-207.024c8.515-14.97 49.725-67.389 63.381-81.417 15.83-16.271 33.385-32.519 52.368-48.658 29.759-25.3 61.564-49.151 93.365-70.87 11.13-7.603 52.995-31.188 52.995-31.188s41.858 23.585 52.987 31.188c31.801 21.719 63.606 45.569 93.365 70.87 51.878 44.111 91.857 87.734 115.757 130.075h-169.348l-44.202-131.882zM681.267 653.841c-60.939 18.018-125.747 1.134-171.152-45.834-44.394 47.656-108.955 63.852-170.318 45.846-68.651-20.145-116.699-78.397-116.699-150.821 0-17.325 3.758-35.094 10.821-53.265h212.166l44.543 112.562c5.527 13.636 25.524 11.304 27.762-3.229l31.344-203.484 27.517 84.173c1.945 5.957 7.504 9.978 13.777 9.978h194.771c7.067 18.178 10.829 35.956 10.829 53.265 0 72.472-47.318 130.688-115.36 150.809z" />
<glyph unicode="&#xe90e;" glyph-name="heart-healthy-2" d="M10.269 409.498c18.84-261.531 237.248-467.861 503.904-467.861 279.026 0 505.222 225.916 505.222 504.598 0 278.684-226.196 504.6-505.222 504.6-278.978 0-505.145-225.839-505.222-504.457h106.357l58.102 143.374c7.038 17.363 32.509 14.398 35.363-4.116l39.924-259.191 35.053 107.217c2.478 7.582 9.56 12.716 17.551 12.716h84.245c-6.772 17.090-10.394 33.804-10.394 50.094 0 66.675 44.24 120.306 107.441 138.852 56.496 16.577 115.934 1.667 156.807-42.205 41.951 43.88 101.471 58.786 157.575 42.194 62.64-18.525 106.208-72.122 106.208-138.841 0-19.55-5.129-39.734-14.807-60.461-20.416-43.717-60.45-89.068-114.465-134.991-27.395-23.293-56.68-45.252-85.955-65.244-10.25-7.003-19.77-13.262-28.329-18.702-3.013-1.907-5.69-3.585-8.013-5.012-1.414-0.87-2.408-1.479-2.95-1.8-5.845-3.507-13.153-3.507-18.998 0-0.543 0.321-1.536 0.929-2.947 1.8-2.323 1.427-5.003 3.105-8.013 5.012-8.563 5.44-18.082 11.698-28.329 18.702-29.278 19.993-58.563 41.951-85.958 65.244-10.712 9.109-0.982 23.732-0.982 23.732s13.877 13.524 25.73 3.688c11.853-9.836 54.062-43.109 82.052-62.227 9.896-6.756 19.076-12.79 27.306-18.016 0.225-0.144 0.417-0.266 0.643-0.406 0.222 0.14 0.414 0.262 0.642 0.406 8.227 5.226 17.407 11.259 27.303 18.016 28.274 19.314 56.544 40.512 82.86 62.891 50.325 42.788 87.24 84.599 104.934 122.496 7.533 16.135 11.351 31.138 11.351 44.872 0 107.508-144.485 150.23-212.136 56.821-7.455-10.301-22.868-10.149-30.124 0.291-64.778 93.203-211.922 50.027-211.922-57.112 0-17.485 6.185-37.016 18.289-58.233 10.022-25.587-16.003-28.663-16.003-28.663h-73.057v-0.077h-26.612l-54.923-167.999c-6.034-18.455-32.845-16.264-35.799 2.921l-41.497 269.4-37.612-92.804c-2.821-6.963-9.589-11.518-17.111-11.518h-117.483z" />
<glyph unicode="&#xe90f;" glyph-name="lo-sodium" d="M509.469 107.613l-203.118 96.683 50.779 399.398 152.339-64.463 152.341 64.463 50.781-399.398-203.122-96.683zM658.77 626.025l-149.293-62.78-149.293 62.78-0.006 22.21 149.291-63.174 149.295 63.174 0.006-22.21zM482.833 752.158c-0.807-2.605-1.243-5.373-1.243-8.242 0-15.381 12.482-27.845 27.879-27.845s27.879 12.464 27.879 27.845c0 2.869-0.436 5.637-1.245 8.242 96.135-11.422 124.332-82.666 124.332-82.666l-148.901-58.783-152.339 58.783c0 0 27.611 71.235 123.638 82.666v0zM509.469 942.159c-273.858 0-495.866-221.732-495.866-495.253 0-273.523 222.008-495.255 495.866-495.255s495.866 221.732 495.866 495.255c0 273.521-222.008 495.253-495.866 495.253v0zM526.011 509.517v-184.235l86.735 35.064-103.256-140.667-103.256 140.667 86.735-35.064v184.218l-105.37 44.589-40.625-319.519 162.495-77.346 162.497 77.346-40.625 319.519-105.331-44.572zM587.943 664.507c15.397 0 27.879 12.464 27.879 27.845 0 15.379-12.482 27.845-27.879 27.845s-27.879-12.466-27.879-27.845c0-15.381 12.482-27.845 27.879-27.845v0zM537.348 661.413c0 15.379-12.482 27.845-27.879 27.845s-27.879-12.466-27.879-27.845c0-15.381 12.482-27.845 27.879-27.845s27.879 12.464 27.879 27.845v0zM428.93 720.196c-15.397 0-27.879-12.466-27.879-27.845 0-15.381 12.482-27.845 27.879-27.845s27.879 12.464 27.879 27.845c0 15.379-12.482 27.845-27.879 27.845v0z" />
<glyph unicode="&#xe910;" glyph-name="gluten-free-2" d="M505.222 955.357c-279.026 0-505.222-225.916-505.222-504.6 0-278.682 226.196-504.598 505.222-504.598s505.222 225.916 505.222 504.598c0 278.684-226.196 504.6-505.222 504.6zM788.578 412.3h-146.882v-155.372h-85.408v386.046h257.989v-68.938h-172.581v-92.799h146.882v-68.938zM494.068 310.22c-12.432-15.557-30.485-29.257-54.168-41.098-23.682-11.844-53.411-17.763-89.187-17.763-45.348 0-82.175 14.669-110.475 44.013-28.304 29.34-42.454 67.434-42.454 114.274v80.605c0 46.486 13.815 84.49 41.446 114.010 27.628 29.518 63.193 44.277 106.698 44.277 47.196 0 82.549-11.491 106.066-34.466 23.514-22.98 36.867-54.355 40.060-94.127l-0.504-1.59h-79.865c-2.859 20.324-9.113 35.616-18.77 45.87-9.659 10.249-24.4 15.378-44.216 15.378-19.821 0-35.774-8.265-47.87-24.79-12.093-16.53-18.138-37.874-18.138-64.034v-81.134c0-26.869 5.959-48.477 17.887-64.826 11.923-16.351 28.634-24.526 50.136-24.526 15.621 0 27.879 1.326 36.783 3.977 8.902 2.651 15.956 6.186 21.164 10.606v60.984h-57.694v59.391h143.102v-145.033z" />
<glyph unicode="&#xe911;" glyph-name="gluten-free" horiz-adv-x="1005" d="M822.041 728.126l-83.261-83.161h65.303v-67.033h-132.419l-31.499-31.458v-58.779h137.588v-67.033h-137.588v-151.083h-87.251v189.752l-52.402-52.338v-85.077c-13.085-15.816-31.493-29.311-55.242-40.478-22.776-10.717-51.88-16.234-87.16-16.672l-141.693-141.519c75.12-64.338 172.732-103.223 279.449-103.223 237.221 0 429.527 192.070 429.527 428.998 0 106.585-38.934 204.079-103.351 279.105zM495.865 878.019c-237.219 0-429.527-192.068-429.527-428.998 0-106.585 38.934-204.077 103.351-279.103l110.072 109.937c-14.671 6.877-27.924 16.055-39.712 27.622-29.089 28.529-43.625 65.567-43.625 111.121v78.378c0 45.199 14.15 82.156 42.465 110.863 28.306 28.699 64.743 43.056 109.321 43.056 48.014 0 84.283-10.699 108.807-32.098s36.348-50.663 35.493-87.789l-0.516-1.547h-81.83c0 18.386-4.905 32.050-14.714 40.994-9.809 8.935-24.612 13.407-44.4 13.407-20.312 0-36.656-7.992-49.046-23.977s-18.586-36.788-18.586-62.393v-78.893c0-26.129 6.148-47.14 18.458-63.036 8.413-10.88 19.15-18.029 32.197-21.465l78.926 78.829h-66.338v57.752h124.161l82.092 81.993v92.294h92.41l129.99 129.83c-75.118 64.338-172.732 103.223-279.449 103.223zM495.865-46.234c-273.858 0-495.866 221.734-495.866 495.255s222.008 495.255 495.866 495.255c273.858 0 495.864-221.734 495.864-495.255s-222.006-495.255-495.864-495.255z" />
<glyph unicode="&#xe912;" glyph-name="no-gm" d="M840.941 738.869l-203.797-203.546 47.683-148.861h1.578l86.53 267.677h117.565v-382.47h-88.897v246.399l-1.578 0.263-84.426-246.662h-59.703l-71.823 210.649-12.603-12.588v-198.061h-88.897v109.273l-53.391-53.325v-2.623c-7.396-8.94-16.525-17.125-27.265-24.61l-178.028-177.807c76.538-65.552 175.991-105.171 284.721-105.171 241.697 0 437.631 195.694 437.631 437.092 0 108.596-39.668 207.929-105.301 284.371zM508.611 891.59c-241.695 0-437.631-195.692-437.631-437.092 0-108.596 39.668-207.927 105.301-284.369l96.794 96.675c-44.562 1.269-80.996 15.736-109.269 43.48-29.638 29.068-44.449 66.804-44.449 113.217v79.856c0 46.052 14.417 83.706 43.266 112.955 28.841 29.24 65.965 43.868 111.383 43.868 48.92 0 85.874-10.9 110.86-32.703s37.034-51.619 36.163-89.445l-0.526-1.576h-83.374c0 18.733-4.997 32.655-14.992 41.767-9.994 9.104-25.076 13.66-45.238 13.66-20.696 0-37.347-8.143-49.972-24.43s-18.937-37.482-18.937-63.57v-80.382c0-26.622 6.264-48.029 18.806-64.226 12.534-16.205 30.114-24.299 52.732-24.299 16.307 0 29.146 1.313 38.532 3.94 9.378 2.627 16.782 6.124 22.223 10.507v68.298h-67.856v58.842h156.754v-53.844l53.391 53.325v178.094h116.513l14.979-46.764 179.267 179.044c-76.536 65.552-175.991 105.171-284.721 105.171zM508.611-50.101c-279.026 0-505.222 225.918-505.222 504.6s226.196 504.6 505.222 504.6c279.026 0 505.22-225.918 505.22-504.6s-226.194-504.6-505.22-504.6z" />
<glyph unicode="&#xe913;" glyph-name="no-diary" d="M837.551 731.255l-219.306-219.036c0.377-15.007 0.53-33.477 0.534-56.685 0.019-85.104-1.936-334.457-1.936-334.457 0-21.233-17.232-38.445-38.49-38.445h-146.267c-21.257 0-38.49 17.211-38.49 38.445 0 0-0.625 80.649-1.164 165.607l-171.935-171.721c76.538-65.552 175.991-105.171 284.721-105.171 241.697 0 437.631 195.694 437.631 437.092 0 108.596-39.668 207.929-105.301 284.371zM505.221 883.976c-241.695 0-437.631-195.692-437.631-437.092 0-108.596 39.668-207.927 105.301-284.369l219.003 218.733c-0.139 28.923-0.229 54.391-0.231 72.362-0.017 127.337 4.341 114.258 26.354 162.279 36.567 79.77 56.238 140.787 56.238 171.54 0 7.689-3.324 23.707 5.178 23.707h51.579c8.503 0 5.178-16.018 5.178-23.707 0-30.753 19.671-91.77 56.238-171.54 4.444-9.694 8.166-16.822 11.282-23.089l186.234 186.004c-76.536 65.552-175.991 105.171-284.721 105.171zM505.221-57.716c-279.026 0-505.222 225.918-505.222 504.6s226.196 504.6 505.222 504.6c279.026 0 505.22-225.918 505.22-504.6s-226.194-504.6-505.22-504.6z" />
<glyph unicode="&#xe914;" glyph-name="no-peanuts" d="M713.867 227.862c5.384-6.328 21.799-2.327 28.135 3.051l2.548 2.164c6.338 5.377 11.666 19.83 6.282 26.157s-14.885 7.099-21.219 1.722l-14.852-14.795c-6.336-5.377-6.278-11.971-0.894-18.299v0zM714.54 292.129c2.102-8.034 8.075-10.845 16.118-8.745 8.046 2.1 11.558 18.606 9.456 26.642l-0.845 3.232c-2.102 8.036-12.828 19.101-20.872 17.002-8.044-2.098-12.862-10.313-10.761-18.349l6.904-19.782zM531.762 312.53c7.054 4.397 7.137 8.516 2.736 15.562l-10.425 16.831c-4.403 7.046-10.941 13.106-17.995 8.71-7.052-4.397 0.712-20.17 5.113-27.214 0 0 6.961-22.371 20.571-13.889v0zM565.474 275.497l-12.49 16.831c-4.403 7.046-10.941 7.949-17.995 3.554-7.052-4.397-5.483-21.201-1.082-28.245 0 0 13.157-21.339 26.766-12.858 7.054 4.397 9.202 13.673 4.801 20.718v0zM569.605 352.843l-10.425 10.643c-4.403 7.046-8.876 15.168-15.93 10.773-7.052-4.397-1.353-16.045 3.048-23.088 0 0 6.961-22.371 20.571-13.889 7.054 4.397 7.137 8.516 2.736 15.562v0zM573.952 371.755l19.631-15.498c7.339-2.648 18.243 0.241 20.895 7.572s-16.205 18.268-23.544 20.916c0 0-11.542 13.603-19.274 3.816-4.834-6.12-5.047-14.157 2.292-16.806v0zM580.581 288.623c0 0 13.153-18.256 26.749-9.752 7.046 4.408 10.214 14.716 5.803 21.756l-16.645 17.843c-4.413 7.037-12.878 4.094-19.924-0.314s-0.394-22.496 4.017-29.534v0zM614.657 241.897l-22.603 4.012c-8.114 1.813-16.164 0.427-17.979-7.677s2.36-18 10.474-19.813l16.098-4.942c8.114-1.813 18.952 3.288 20.767 11.389 1.815 8.106 1.357 15.216-6.757 17.031v0zM628.979 415.671c0 0-23.065 13.743-32.22 2.157-5.722-7.244 3.426-19.287 12.114-22.422l18.351-6.138c8.688-3.135 19.154-4.597 22.293 4.080s-11.848 19.188-20.538 22.323v0zM623.863 330.497l9.066-6.73c7.149-5.845 17.562-3.484 23.414 3.657 5.85 7.141-3.75 17.907-10.9 23.75 0 0-11.092 12.043-23.584 4.158-7.81-4.93-5.146-18.992 2.003-24.835v0zM649.213 246.536h3.717c9.237 0 17.966 5.313 17.966 14.541s-2.327 17.738-11.565 17.738l-16.005 9.488c-9.237 0-20.135-14.904-20.135-24.132s16.783-17.635 26.020-17.635v0zM676.885 233.439l-23.232-1.856c-9.237 0-13.939-5.623-13.939-14.85s16.783-17.635 26.020-17.635h3.717c9.237 0 24.162 8.407 24.162 17.635s-7.49 16.707-16.727 16.707v0zM702.331 344.267c5.948 5.802 6.059 15.321 0.248 21.261l-15.808 13.77c-5.811 5.94-18.588 5.427-24.534-0.377-5.948-5.802 10.544-26.007 16.356-31.945 0 0 12.263-13.906 23.738-2.708v0zM690.763 313.598l-2.362 2.366c-5.869 5.882-20.717 10.041-26.605 4.181-5.89-5.864-5.906-15.383-0.037-21.265l15.945-13.613c5.869-5.882 12.446-5.301 18.334 0.561 5.89 5.862 0.595 21.888-5.274 27.77v0zM838.988 720.708l-256.98-256.666c49.358-28.837 106.962-57.779 144.754-94.014 54.771-52.515 53.011-134.857 38.556-173.014-62.986-33.001-167.815-26.106-209.439 8.904-25.31 21.288-57.91 87.876-87.949 144.186l-234.566-234.275c75.12-64.338 172.732-103.223 279.449-103.223 237.221 0 429.527 192.068 429.527 428.998 0 106.585-38.934 204.077-103.351 279.105v0zM429.491 544.668c0 0 3.465-14.97 19.422-15.539 6.648-0.237 14.807 2.104 11.364 11.043-3.44 8.937-6.999 16.321-17.413 16.692-6.648 0.237-13.136-5.559-13.374-12.196v0zM405.806 602.601c-6.276-5.445 5.111-27.968 10.563-34.237 0 0 10.239-9.847 23.071 1.289 6.276 5.447-5.345 21.063-10.796 27.333 0 0-13.004 14.149-22.838 5.614v0zM366.774 629.283l11.986-17.194c4.19-7.174 15.6-5.643 22.78-1.458 12.519 7.299-4.667 28.459-4.667 28.459-4.19 7.172-17.506 14.943-24.686 10.756-7.18-4.185-9.603-13.392-5.413-20.564v0zM432.393 502.315c6.648-0.237 11.127 4.404 11.364 11.043 0 0-18.702 18.384-29.116 18.755-6.648 0.237-9.006-9.684-9.243-16.321 0 0 11.038-12.908 26.995-13.477v0zM416.161 494.906l-14.718 4.214c-7.379 1.238-11.889-2.624-13.13-9.995-1.239-7.37 9.194-16.094 16.573-17.332l2.97-0.499c7.381-1.238 17.731 1.962 18.972 9.331 1.239 7.372-3.286 13.044-10.666 14.281v0zM381.554 561.436c0 0 16.323-10.152 23.509 0.701 4.587 6.928-12.428 25.58-19.365 30.159 0 0-12.502 6.745-21.88-7.417-4.587-6.926 10.801-18.862 17.735-23.443v0zM355.756 559.238c-8.296-0.561-11.036-6.052-10.476-14.337 0 0 8.892-13.747 28.808-12.402 17.432 1.176 13.155 8.556 12.554 17.458 0 0-17.888 10.156-30.886 9.282v0zM354.885 612.747l-15.445 14.176c-5.654 6.089-16.455 2.114-22.551-3.533-10.629-9.845 10.757-26.762 10.757-26.762 5.654-6.089 20.343-10.779 26.438-5.13 6.096 5.647 6.456 15.16 0.801 21.249v0zM322.165 660.959l17.056-8.081c6.482-3.731 12.058-1.683 15.796 4.791s-4.636 19.155-11.119 22.886l-2.61 1.502c-6.482 3.733-20.36 3.861-24.098-2.615-3.736-6.474-1.51-14.749 4.975-18.483v0zM290.259 654.792c-7.3-1.644-13.192-7.277-11.548-14.568s7.98-10.833 15.28-9.189l15.222 1.658c7.3 1.642 11.373 7.37 8.368 14.213-3.155 7.19-27.321 7.885-27.321 7.885v0zM247.598 668.824c1.828-8.1 8.868-12.035 16.977-10.21l16.911 1.844c8.114 1.825 11.127 7.691 9.299 15.793-1.826 8.1-16.228 12.693-24.339 10.87l-3.263-0.734c-8.112-1.825-17.413-9.461-15.585-17.563v0zM300.721 545.177l-20.242 5.488c-7.825 2.809-15.585-5.682-18.398-13.497-4.903-13.625 21.88-18.819 21.88-18.819 7.823-2.807 23.026-0.223 25.837 7.592 2.813 7.815-1.251 16.426-9.076 19.236v0zM322.657 515.856c-0.083-16.377 22.568-18.132 22.568-18.132 7.825-2.807 22.338-2.974 25.149 4.843 2.813 7.815 0.814 15.051-7.011 17.858l-19.555 7.553c-7.825 2.809-21.107-3.818-21.151-12.122v0zM326.279 568.342c0 0-13.911 20.401-26.931 20.865-8.31 0.297-16.42-6.945-16.715-15.244 0 0 9.493-18.712 29.44-19.423 8.31-0.295 13.909 5.505 14.206 13.803v0zM258.38 586.165c8.31-0.295 21.481 10.317 21.779 18.617 0 0-4.962 24.526-17.983 24.99-8.31 0.297-16.42-12.446-16.715-20.745l-0.12-3.339c-0.297-8.3 4.731-19.225 13.039-19.522v0zM224.196 641.998c-8.279 0.776-17.112-11.48-17.888-19.749l-0.312-3.325c-0.774-8.269 3.614-19.467 11.891-20.24 8.279-0.776 14.204 4.692 14.98 12.961l3.482 16.63c0.776 8.269-3.876 12.949-12.153 13.722v0zM233.264 578.904c-5.384 6.328-11.984 6.272-18.32 0.893-6.338-5.377-2.332-21.772 3.054-28.1l2.166-2.545c5.384-6.328 19.854-11.651 26.19-6.274s7.108 14.867 1.724 21.195l-14.815 14.832zM512.812 870.601c-237.221 0-429.527-192.068-429.527-428.998 0-106.585 38.934-204.077 103.351-279.103l247.053 246.747c-6.443 9.55-12.5 17.179-18.024 22.047-37.244 32.822-168.693 65.645-216.892 105.030-48.198 39.387 5.694 154.049 5.694 154.049s125.133 44.84 206.817-29.326c48.198-43.761 59.153-113.782 111.733-157.545 0.905-0.755 1.857-1.502 2.788-2.254l266.455 266.129c-75.118 64.338-172.73 103.223-279.447 103.223v0zM512.812-53.652c-273.858 0-495.866 221.734-495.866 495.255s222.008 495.255 495.866 495.255c273.858 0 495.864-221.734 495.864-495.255s-222.006-495.255-495.864-495.255v0z" />
<glyph unicode="&#xe915;" glyph-name="no-sesame" d="M695.96 274.262c-35.59-15.753-104.457-88.756-91.67-117.576s113.195-26.901 148.788-11.148c35.59 15.751 51.655 57.337 35.883 92.883s-57.41 51.594-93 35.841v0zM908.087 376.717c-2.571 38.795-36.144 68.164-74.987 65.596-38.845-2.568-68.248-36.101-65.677-74.897s47.527-128.487 79.021-126.404c31.492 2.080 64.216 96.91 61.643 135.705v0zM730.282 335.484c9.163 30.165-68.119 94.218-105.37 105.509s-76.614-9.717-87.919-46.922c-11.303-37.205 9.729-76.519 46.98-87.808 37.251-11.293 137.142-0.941 146.309 29.221v0zM234.734 506.759h97.909v26.68h-63.183v37.247h52.705v26.678h-52.705v32.119h63.286v26.678h-98.012v-149.403zM450.69 576.814c-8.907 7.389-22.021 13.647-39.35 18.779-10.205 3.965-17.176 7.267-20.906 9.902-3.733 2.633-5.599 6.138-5.599 10.518 0 4.514 1.814 8.311 5.445 11.388 3.627 3.079 8.595 4.619 14.897 4.619 7.739 0 13.527-1.591 17.363-4.772 3.834-3.18 5.753-8.295 5.753-15.341h33.699l0.204 0.616c0.343 14.502-4.692 25.737-15.101 33.708-10.413 7.969-24.144 11.955-41.198 11.955-16.166 0-29.487-3.867-39.967-11.596-10.478-7.729-15.717-17.854-15.717-30.373 0-12.794 4.501-22.593 13.51-29.398 9.005-6.807 22.789-13.22 41.351-19.239 9.176-3.217 15.513-6.244 19.006-9.083s5.239-6.926 5.239-12.262c0-4.651-1.78-8.412-5.342-11.287-3.562-2.873-8.972-4.308-16.231-4.308-8.837 0-15.396 1.828-19.675 5.489-4.282 3.659-6.422 9.833-6.422 18.52h-33.8l-0.206-0.616c-0.343-17.102 5.359-29.637 17.106-37.606 11.745-7.971 26.076-11.955 42.997-11.955 16.984 0 30.614 3.711 40.888 11.134 10.274 7.42 15.41 17.701 15.41 30.835 0 12.859-4.452 22.986-13.355 30.373v0zM507.393 4.391c-108.73 0-208.184 39.619-284.721 105.171l397.689 397.197h31.593v31.554l16.576 16.555 16.403-48.109h23.322l32.979 96.353 0.616-0.103v-96.25h34.724v149.403h-6.626l69.775 69.692c18.474-21.519 34.892-44.85 48.945-69.692h-88.258v-149.403h97.909v26.68h-63.183v37.247h52.703v26.678h-52.703v32.119h63.286v8.412c29.8-59.052 46.601-125.77 46.601-196.413 0-241.4-195.936-437.092-437.631-437.092v0zM553.222 562.478h-28.458l13.87 46.38h0.616l13.971-46.38zM711.913 598.201l-15.063-46.6h-0.616l-7.507 23.44 23.187 23.16zM69.762 441.483c0 58.999 11.73 115.256 32.948 166.608 1.565-8.887 5.807-15.99 12.797-21.271 9.005-6.807 22.789-13.22 41.351-19.239 9.178-3.217 15.513-6.244 19.006-9.083 3.495-2.839 5.241-6.926 5.241-12.262 0-4.651-1.782-8.412-5.342-11.287-3.564-2.873-8.974-4.308-16.233-4.308-8.835 0-15.396 1.828-19.675 5.489-4.282 3.659-6.422 9.833-6.422 18.52h-33.8l-0.206-0.616c-0.343-17.102 5.359-29.637 17.106-37.606 11.745-7.971 26.078-11.955 42.997-11.955 16.984 0 30.616 3.711 40.888 11.134 10.274 7.42 15.412 17.701 15.412 30.835 0 12.859-4.454 22.986-13.357 30.373-8.907 7.389-22.021 13.647-39.348 18.779-10.207 3.965-17.176 7.267-20.908 9.902-3.733 2.633-5.599 6.138-5.599 10.518 0 4.514 1.814 8.311 5.445 11.388 3.63 3.079 8.595 4.619 14.897 4.619 7.739 0 13.527-1.591 17.363-4.772 3.834-3.18 5.753-8.295 5.753-15.341h33.699l0.206 0.616c0.341 14.502-4.694 25.737-15.103 33.708-10.411 7.969-24.144 11.955-41.198 11.955-13.799 0-25.506-2.843-35.159-8.473 74.089 136.313 218.658 228.86 384.871 228.86 108.73 0 208.184-39.617 284.719-105.169l-126.465-126.312-2.906 9.070h-45.513v-57.429l-30.741-30.701-28.847 88.13h-18.596l-0.103-0.103v0.103h-18.596l-48.8-149.403h36.575l8.629 29.040h37.465l-379.152-378.687c-65.632 76.441-105.301 175.774-105.301 284.371v0zM507.393 946.081c-279.026 0-505.222-225.916-505.222-504.598 0-278.684 226.196-504.6 505.222-504.6s505.22 225.916 505.22 504.6c0 278.682-226.194 504.598-505.22 504.598v0z" />
<glyph unicode="&#xe916;" glyph-name="no-shellfish" d="M509.413 17.408c-108.73 0-208.184 39.619-284.719 105.171l372.362 371.904c10.468-7.788 18.937-18.256 24.531-33.054-50.498-10.507-54.706-63.045-54.706-63.045s42.082 67.247 67.33 42.030c-29.457-3.152-48.394-44.131-48.394-44.131s57.862 48.334 65.226 10.507c39.977-123.988-98.892-167.068-134.661-187.032-87.321-49.385-118.882 25.218-133.611 7.355-36.649-55.759 73.994-117.683 91.527-109.277 17.535 8.406 12.624 42.030 65.228 58.842 133.586 31.131 166.819 76.248 211.062 161.278 1.557 2.993-48.472 27.231-46.368 34.237 25.249-14.011 56.692-11.97 55.594-14.467 19.208 43.616 26.583 85.499 17.67 130.080-0.518 2.589-64.126-16.064-65.527-2.053 29.457-0.702 62.426 23.785 61.639 26.559-6.527 22.992-17.144 45.445-32.079 66.8-8.479 12.121-12.961 18.581-21.809 27.958-1.837 1.946-46.912-53.867-52.522-42.66 3.596 2.932 6.788 6.231 9.632 9.742l164.922 164.716c65.632-76.441 105.301-175.774 105.301-284.369 0-241.4-195.934-437.092-437.631-437.092zM518.488 628.496c0-11.026-8.951-19.964-19.991-19.964-11.038 0-19.989 8.938-19.989 19.964 0 11.024 8.951 19.964 19.989 19.964 11.040 0 19.991-8.94 19.991-19.964zM71.783 454.499c0 241.397 195.934 437.090 437.631 437.090 108.73 0 208.184-39.617 284.719-105.169l-131.747-131.587c-90.597 51.959-184.771 3.337-240.687 23.047-71.539 25.218-170.43 113.48-170.43 113.48s117.828-121.886 154.65-149.205c-53.654-12.609-168.326 78.806-168.326 78.806s114.672-99.82 135.713-106.125c21.041-6.304 31.561-31.522 65.226-58.842 26.833-21.776 58.674-29.459 88.569-36.28l-350.017-349.586c-65.632 76.441-105.301 175.774-105.301 284.371zM509.413 959.097c-279.026 0-505.222-225.916-505.222-504.598 0-278.684 226.196-504.6 505.222-504.6s505.222 225.916 505.222 504.6c0 278.682-226.196 504.598-505.222 504.598z" />
<glyph unicode="&#xe917;" glyph-name="no-sugar" d="M826.028 464.032c-4.066-3.496-9.939-5.245-17.617-5.245h-19.313v42.637h19.086c7.604 0 13.498-2.050 17.675-6.149s6.268-9.494 6.268-16.185c0-6.542-2.032-11.563-6.098-15.059v0zM873.914 380.506c-1.282 5.488-1.921 10.377-1.921 14.663v10.379c0 9.925-2.203 18.217-6.606 24.87-4.405 6.656-11.653 11.41-21.741 14.269 8.733 3.834 15.34 8.799 19.821 14.89 4.479 6.091 6.72 13.384 6.72 21.882 0 15.265-5.572 27.298-16.715 36.095-11.143 8.799-26.239 13.198-45.288 13.198h-57.257v-164.232h38.172v62.939h20.443c7.98 0 14.039-2.069 18.181-6.204 4.141-4.135 6.212-10.115 6.212-17.934v-9.925c0-5.189 0.452-10.717 1.355-16.581 0.905-5.866 2.86-9.964 5.873-12.295h39.415v2.254c-3.162 2.331-5.384 6.241-6.662 11.732v0zM649.284 427.768l15.247 50.985h0.677l15.358-50.985h-31.282zM664.983 530.752l-0.114-0.113v0.113h-20.443l-53.643-164.232h40.206l9.485 31.92h48.902l9.601-31.92h40.204l-53.757 164.232h-20.44zM255.025 443.672c-9.789 8.12-24.207 15.001-43.254 20.642-11.22 4.36-18.881 7.988-22.983 10.884-4.105 2.894-6.156 6.749-6.156 11.563 0 4.963 1.995 9.135 5.987 12.52 3.988 3.383 9.448 5.076 16.374 5.076 8.508 0 14.871-1.749 19.088-5.245 4.215-3.496 6.323-9.119 6.323-16.864h37.044l0.225 0.677c0.376 15.942-5.159 28.292-16.601 37.054-11.445 8.76-26.541 13.141-45.288 13.141-17.768 0-32.412-4.249-43.931-12.747s-17.279-19.625-17.279-33.387c0-14.063 4.948-24.835 14.85-32.316 9.9-7.483 25.052-14.533 45.457-21.15 10.088-3.535 17.054-6.862 20.893-9.983s5.76-7.613 5.76-13.479c0-5.113-1.958-9.249-5.873-12.408s-9.863-4.736-17.843-4.736c-9.714 0-16.924 2.009-21.628 6.033-4.706 4.024-7.059 10.81-7.059 20.36h-37.155l-0.227-0.677c-0.376-18.8 5.892-32.58 18.805-41.34 12.911-8.762 28.666-13.141 47.264-13.141 18.671 0 33.653 4.080 44.947 12.239 11.294 8.157 16.94 19.456 16.94 33.894 0 14.137-4.894 25.266-14.681 33.389v0zM511.535 17.963c-106.717 0-204.328 38.884-279.447 103.223l250.49 250.183c9.708-4.81 20.889-7.219 33.554-7.219 16.339 0 29.702 2.444 40.094 7.332 10.39 4.886 18.444 10.789 24.168 17.709v65.084h-14.807l272.124 271.787c64.417-75.026 103.351-172.519 103.351-279.103 0-236.929-192.305-428.998-429.527-428.998v0zM485.463 467.592c0.25 10.468 2.924 19.054 8.083 25.71 5.421 6.994 12.572 10.49 21.459 10.49 2.249 0 4.347-0.138 6.301-0.402l-35.842-35.798zM540.289 429.010h1.931v-29.328c-2.336-1.881-5.516-3.385-9.543-4.513-4.029-1.128-9.543-1.691-16.546-1.691-3.62 0-6.941 0.487-9.962 1.454l34.12 34.078zM82.008 446.96c0 236.927 192.305 428.995 429.527 428.995 106.717 0 204.328-38.884 279.447-103.223l-244.98-244.678c-8.903 3.368-19.639 5.066-32.241 5.066-19.501 0-35.443-6.281-47.828-18.837-12.387-12.559-18.578-28.725-18.578-48.501v-34.29c0-0.65 0.025-1.283 0.037-1.922l-24.835-24.806c1.772 5.924 2.662 12.427 2.662 19.51v106.48h-38.285v-106.48c0-10.228-2.579-17.918-7.736-23.068-5.159-5.152-12.366-7.726-21.628-7.726-9.336 0-16.639 2.595-21.909 7.782-5.272 5.189-7.905 12.86-7.905 23.012v106.48h-38.285v-106.48c0-18.802 6.286-33.521 18.859-44.162s28.988-15.96 49.241-15.96c10.708 0 20.325 1.524 28.874 4.544l-201.086-200.838c-64.417 75.026-103.351 172.519-103.351 279.105v0zM511.535 942.214c-273.858 0-495.866-221.732-495.866-495.253 0-273.523 222.008-495.255 495.866-495.255s495.866 221.732 495.866 495.255c0 273.521-222.008 495.253-495.866 495.253v0z" />
<glyph unicode="&#xe918;" glyph-name="antibiotic-hormone-free-1" d="M837.602 730.605l-617.050-616.29c76.536-65.554 175.989-105.171 284.719-105.171 241.697 0 437.631 195.692 437.631 437.092 0 108.594-39.668 207.927-105.301 284.369zM505.272 883.327c-241.695 0-437.631-195.692-437.631-437.090 0-108.596 39.668-207.929 105.301-284.371l617.052 616.29c-76.536 65.554-175.991 105.171-284.721 105.171zM505.272-58.363c-279.026 0-505.222 225.916-505.222 504.6 0 278.682 226.196 504.598 505.222 504.598 279.028 0 505.222-225.916 505.222-504.598 0-278.684-226.194-504.6-505.222-504.6zM428.585 638.375c-51.875 34.129-120.661 38.413-178.127 5.23-72.28-41.731-102.246-128.582-74.817-204.355l236.088 136.305 16.857 62.82zM390.841 497.715l-187.135-108.042c34.917-42.925 88.093-65.195 141.494-62.046l45.641 170.088zM494.104 595.566c15.812 58.928 76.389 93.906 135.328 78.136 58.937-15.767 93.893-76.312 78.079-135.236l-38.328-142.847-213.409 57.103 38.33 142.844zM485.817 138.473c78.925-21.117 160.033 25.728 181.205 104.619l76.665 285.695c21.166 78.901-25.641 159.966-104.547 181.081-78.928 21.115-160.036-25.73-181.208-104.621l-76.66-285.696c-21.171-78.899 25.634-159.961 104.545-181.078v0z" />
<glyph unicode="&#xe919;" d="M840.202 727.435l-605.623-604.877c75.118-64.34 172.73-103.223 279.447-103.223 237.221 0 429.527 192.068 429.527 428.998 0 106.583-38.934 204.077-103.351 279.103zM514.026 877.328c-237.219 0-429.527-192.068-429.527-428.995 0-106.585 38.934-204.079 103.351-279.105l605.625 604.877c-75.118 64.34-172.732 103.223-279.449 103.223zM18.16 448.332c0 273.521 222.008 495.253 495.866 495.253 273.861 0 495.866-221.732 495.866-495.253 0-273.523-222.006-495.255-495.866-495.255-273.858 0-495.866 221.732-495.866 495.255z" />
<glyph unicode="&#xe91a;" d="M356.352 790.956l-175.049-174.827 28.676-28.649 40.66 40.614 20.114-20.091-81.32-81.22 28.672-28.641 40.66 40.61 309.015-308.632 40.658 40.612 32.532-32.49 32.525 32.49 133.842-133.681-5.698 28.408-8.657 43.211-90.811 90.706 32.525 32.488-32.525 32.487 40.658 40.602-309.011 308.634 40.658 40.612-28.672 28.637-81.32-81.214-20.112 20.087 40.656 40.608-28.676 28.641zM331.961 721.707v0zM266.906 656.73l48.788 48.734 32.53-32.49-48.792-48.732-32.525 32.487zM281.242 567.392l123.903 123.75 49.901-49.842-55.624-55.559 22.468-22.445 55.628 55.559 18.598-18.569-37.409-37.359 22.47-22.445 37.407 37.361 18.596-18.575-55.628-55.557 22.466-22.439 55.632 55.553 18.592-18.571-37.403-37.361 22.468-22.441 37.405 37.361 18.598-18.578-55.628-55.555 22.47-22.445 55.626 55.559 49.905-49.844-123.903-123.746-286.542 286.187zM201.849 608.002v0zM706.021 348.104v0zM624.705 299.367l48.792 48.73 16.263-16.243-48.79-48.73-16.265 16.243zM608.443 283.125v0zM793.032 163.737v0z" />
<glyph unicode="&#xe91b;" glyph-name="organic" d="M892.824 395.699c-63.4-19.485-126.070 30.238-126.070 30.238s25.924 77.242 89.324 96.727c63.4 19.487 131.572-27.92 131.572-27.92s-31.426-79.56-94.826-99.045zM717.821 264.009c-49.696 25.399-50.609 75.698-50.609 75.698s39.409 31.085 89.108 5.687c49.694-25.396 69.367-86.678 69.367-86.678s-58.169-20.103-107.865 5.294zM606.406 482.179c0 0-52.997 105.11 20.774 185.58s214.475 71.030 214.475 71.030c0 0 22.518-134.766-51.253-215.236s-183.995-41.374-183.995-41.374zM528.069 694.015c0 0-59.752 45.249-40.167 104.044 19.585 58.793 102.622 83.442 102.622 83.442s50.828-67.68 31.243-126.474c-19.585-58.793-93.699-61.012-93.699-61.012zM341.276 408.886c0 0-64.256-76.053-154.957-48.796-90.7 27.254-134.276 135.71-134.276 135.71s100.135 67.464 190.835 40.21c90.698-27.254 98.397-127.123 98.397-127.123zM411.788 325.52c0 0-5.912-55.759-64.711-75.521-58.8-19.76-122.792 12.502-122.792 12.502s28.022 66.165 86.82 85.928c58.798 19.762 100.682-22.908 100.682-22.908zM202.609 671.605c49.698-25.399 50.609-75.698 50.609-75.698s-39.409-31.085-89.105-5.689c-49.696 25.399-69.371 86.68-69.371 86.68s58.171 20.103 107.868-5.294zM508.609 948.24c-79.711 0-155.093-18.464-222.14-51.299 46.050-13.25 113.052-41.511 148.626-98.766 57.599-92.709 4.52-213.21 4.52-213.21s-134.027 8.931-191.629 101.638c-35.874 57.742-31.14 129.281-22.463 175.035-134.044-90.736-222.136-244.089-222.136-417.998 0-245.241 175.166-449.619 407.355-495.139 73.617 0 67.324 316.891 69.428 369.428 6.312 67.247-214.039 253.368-192.998 270.179s196.142-155.737 202.454-124.215c6.312 31.522-11.526 178.092 20.035 178.092s34.204-187.91 40.516-227.839c6.312-39.928 182.15 20.901 194.774 1.988s-153.724-40.191-189.493-120.047c1.578-180.728 1.039-340.827 80.708-340.827 217.269 56.45 377.665 253.706 377.665 488.379 0 278.682-226.196 504.6-505.222 504.6z" />
<glyph unicode="&#xe91c;" glyph-name="superfood-2" d="M581.631 358.289c-48.776-24.926-49.672-74.296-49.672-74.296s38.682-30.509 87.457-5.581c48.776 24.928 68.085 85.073 68.085 85.073s-57.094 19.733-105.87-5.196v0zM575.357 472.463c-43.7-33.009-35.999-81.783-35.999-81.783s43.396-23.336 87.098 9.671c43.702 33.007 52.26 95.59 52.26 95.59s-59.657 9.529-103.359-23.478v0zM667.923 633.036c0 0-60.409-0.961-97.707-41.047s-21.236-86.783-21.236-86.783c0 0 46.797-15.457 84.095 24.629s34.847 103.201 34.847 103.201v0zM512.29 764.372c0 0-43.725-41.639-43.898-96.361-0.171-54.724 43.351-78.144 43.351-78.144s44.877 20.353 45.048 75.077c0.173 54.722-44.501 99.428-44.501 99.428v0zM454.965 591.989c-37.298 40.086-97.707 41.047-97.707 41.047s-2.451-63.115 34.847-103.201c37.298-40.086 84.093-24.629 84.093-24.629s16.064 46.697-21.233 86.783v0zM398.724 400.351c43.702-33.007 87.098-9.671 87.098-9.671s7.703 48.774-35.999 81.783c-43.7 33.007-103.359 23.478-103.359 23.478s8.56-62.582 52.26-95.59v0zM405.766 278.412c48.776-24.928 87.455 5.581 87.455 5.581s-0.894 49.37-49.67 74.296c-48.776 24.928-105.87 5.196-105.87 5.196s19.309-60.144 68.085-85.073v0zM679.864 159.297c0 0-48.406 46.41-156.463 49.355v360.182c0 5.695-4.624 10.313-10.326 10.313h-0.991c-5.702 0-10.326-4.618-10.326-10.313v-360.184c-108.168-2.947-158.508-49.353-158.508-49.353h336.613zM898.596 457.963l109.602-89.604-132.902-48.916 69.792-123.098-141.619 2.337 20.554-139.966-131.209 53.274-31.458-137.93-103.080 97.017-79.22-117.265-61.030 127.656-116.284-80.766-10.737 141.057-137.644-33.356 41.007 135.403-140.415 18.557 87.212 111.467-124.218 67.964 121.637 72.474-91.249 108.194 139.637 23.693-45.955 133.809 138.775-28.286 5.545 141.354 119.175-76.447 56.297 129.808 83.478-114.283 99.445 100.732 36.505-136.684 129.162 58.051-15.397-140.626 141.437 7.528-65.218-125.575 134.608-44.009-106.233-93.564z" />
<glyph unicode="&#xe91d;" glyph-name="superfood" d="M625.009 291.88c-26.301-19.004-61.199-28.502-104.678-28.502-43.314 0-80.003 10.196-110.070 30.604-30.071 20.399-44.67 52.489-43.79 96.275l0.526 1.576h86.53c0-22.246 5.475-38.049 16.437-47.416 10.958-9.375 27.749-14.053 50.367-14.053 18.583 0 32.432 3.678 41.555 11.033 9.115 7.355 13.676 16.984 13.676 28.895 0 13.66-4.471 24.117-13.413 31.39-8.942 7.265-25.167 15.015-48.657 23.249-47.523 15.408-82.806 31.825-105.862 49.252-23.061 17.419-34.585 42.507-34.585 75.26 0 32.048 13.413 57.963 40.24 77.755 26.827 19.783 60.928 29.683 102.311 29.683 43.66 0 78.812-10.205 105.467-30.604 26.646-20.408 39.533-49.171 38.662-86.291l-0.526-1.576h-86.267c0 18.035-4.915 31.127-14.729 39.27-9.822 8.143-24.641 12.216-44.449 12.216-16.134 0-28.849-3.94-38.136-11.821-9.296-7.881-13.939-17.6-13.939-29.158 0-11.214 4.776-20.187 14.333-26.926 9.553-6.748 27.395-15.194 53.523-25.348 44.358-13.134 77.933-29.158 100.733-48.071 22.791-18.913 34.191-44.837 34.191-77.755 0-33.624-13.15-59.943-39.451-78.938zM514.939 955.797c-279.026 0-505.22-225.916-505.22-504.598 0-278.684 226.194-504.6 505.22-504.6 279.028 0 505.222 225.916 505.222 504.6 0 278.682-226.194 504.598-505.222 504.598z" />
<glyph unicode="&#xe91e;" glyph-name="vegan" d="M834.313 473.264h-156.754v-58.842h67.856v-68.298c-5.441-4.384-12.845-7.881-22.225-10.507-9.384-2.627-22.223-3.94-38.53-3.94-22.619 0-40.198 8.095-52.734 24.297-12.54 16.198-18.804 37.606-18.804 64.228v80.382c0 26.088 6.312 47.283 18.937 63.57s29.276 24.43 49.972 24.43c20.161 0 35.243-4.556 45.238-13.66 9.994-9.112 14.992-23.034 14.992-41.767h83.374l0.526 1.576c0.871 37.827-11.179 67.643-36.165 89.445s-61.938 32.703-110.857 32.703c-45.419 0-82.543-14.628-111.386-43.868-28.847-29.248-43.264-66.903-43.264-112.955v-79.856c0-46.413 14.811-84.15 44.449-113.217 29.63-29.076 68.201-43.606 115.724-43.606 38.046 0 69.171 5.689 93.368 17.075 24.197 11.377 42.953 25.127 56.284 41.242v151.57zM408.238 650.84l-76.010-279.76-2.63-12.872h-1.578l-2.63 13.922-74.958 278.709h-92.842l123.614-382.47h95.998l124.14 382.47h-93.105zM507.392-53.401c-279.026 0-505.222 225.918-505.222 504.6s226.196 504.6 505.222 504.6c279.026 0 505.222-225.918 505.222-504.6s-226.196-504.6-505.222-504.6v0z" />
<glyph unicode="&#xe91f;" glyph-name="vegeterian-2" d="M586.080 650.84l-76.010-279.76-2.63-12.872h-1.578l-2.63 13.922-74.958 278.709h-92.842l123.614-382.47h95.998l124.14 382.47h-93.105zM507.308-53.401c-279.026 0-505.22 225.918-505.22 504.6s226.194 504.6 505.22 504.6c279.028 0 505.222-225.918 505.222-504.6s-226.194-504.6-505.222-504.6v0z" />
<glyph unicode="&#xe920;" glyph-name="vegeterian" d="M385.562 92.253c47.359 62.7-6.195 148.505 57.823 237.195s251.944 160.88 272.595 282.572c-30.977-113.441-231.292-177.381-305.636-261.946s-7.505-116.789-72.279-226.882c-39.237-66.689-79.852-99.003-79.852-99.003l41.992-21.313c0 0 55.758 50.188 85.357 89.377zM509.469 946.395c-273.858 0-495.866-221.734-495.866-495.255 0-163.285 79.133-308.096 201.169-398.313 21.646 18.846 56.446 52.534 59.275 76.552 4.13 35.064-35.107 179.443 59.888 307.323s303.571 78.378 421.283 352.699c-2.065-290.822 22.716-482.641-140.428-618.77s-208.576-96.941-229.227-103.128c-14.024-4.201-58.513-41.687-85.63-65.317 63.655-29.687 134.647-46.301 209.536-46.301 273.858 0 495.866 221.734 495.866 495.255s-222.008 495.255-495.866 495.255z" />
<glyph unicode="&#xe921;" glyph-name="wholegrain" d="M569.454 242.009c-22.31-17.14-36.217-127.674-36.217-127.674s152.211 43.015 169.374 54.441c17.159 11.428 47.943 128.531 47.943 128.531s-158.79-38.159-181.1-55.298v0zM569.454 390.317c-22.31-17.14-36.217-127.674-36.217-127.674s152.211 43.015 169.374 54.443c17.159 11.426 47.943 128.529 47.943 128.529s-158.79-38.159-181.1-55.298v0zM569.454 538.579c-22.31-17.14-36.217-127.676-36.217-127.676s152.211 43.017 169.374 54.443c17.159 11.426 47.943 128.531 47.943 128.531s-158.79-38.159-181.1-55.298v0zM729.469 770.009c-2.556 4.203-31.227 4.96-34.635-0.294-3.406-5.254-5.666-51.316-10.211-60.422-4.543-9.108-106.081-35.2-119.888-46.985-20.077-17.14-32.596-102.456-32.596-102.456s186.143 58.644 189.931 71.253c3.787 12.609 9.956 134.701 7.4 138.904v0zM519.392 578.916c0 5.802-4.711 10.507-10.52 10.507h-1.010c-5.811 0-10.52-4.705-10.52-10.507v-523.528c0-5.802 4.709-10.507 10.52-10.507h1.010c5.809 0 10.52 4.705 10.52 10.507v523.528zM446.879 242.009c-22.307 17.14-181.1 55.298-181.1 55.298s30.785-117.103 47.946-128.531c17.161-11.426 169.374-54.441 169.374-54.441s-13.91 110.534-36.22 127.674v0zM446.879 390.317c-22.307 17.14-181.1 55.298-181.1 55.298s30.785-117.103 47.946-128.529c17.161-11.428 169.374-54.443 169.374-54.443s-13.91 110.534-36.22 127.674v0zM446.879 538.579c-22.307 17.14-181.1 55.298-181.1 55.298s30.785-117.105 47.946-128.531c17.161-11.426 169.374-54.443 169.374-54.443s-13.91 110.536-36.22 127.676v0zM445.708 662.308c-13.807 11.785-115.343 37.877-119.888 46.985-4.545 9.106-6.802 55.168-10.211 60.422s-32.079 4.497-34.633 0.294c-2.556-4.203 3.611-126.295 7.398-138.904s189.931-71.253 189.931-71.253c0 0-12.519 85.316-32.596 102.456v0zM505.221-53.401c-279.026 0-505.222 225.918-505.222 504.6s226.196 504.6 505.222 504.6c279.026 0 505.222-225.918 505.222-504.6s-226.196-504.6-505.222-504.6v0z" />
</font>
</defs>
</svg>
